#TITLE:Forever We Can Make It!;
#SUBTITLE:- とらぶる -;
#ARTIST:THYME;
#TITLETRANSLIT:;
#SUBTITLETRANSLIT:- To Love-Ru -;
#ARTISTTRANSLIT:;
#CREDIT:QED;
#BANNER:Forever We Can make It-bn.jpg;
#BACKGROUND:Forever We Can make It-bg1.jpg;
#LYRICSPATH:Forever We Can make It.lrc;
#CDTITLE:qed.png;
#MUSIC:Forever We Can make It.mp3;
#OFFSET:0.135;
#SAMPLESTART:26.160;
#SAMPLELENGTH:21.680;
#SELECTABLE:YES;
#BPMS:0.000=185.000;
#STOPS:;
#BGCHANGES:0.135=Forever We Can Make It-bg.avi=1.000=1=1=0,
274.500=Forever We Can Make It-bg2.jpg=1.000=1=0=1,
99999=-nosongbg-=1.000=0=0=0 // don't automatically add -songbackground-
;
// cache tags:
#FIRSTBEAT:1.500;
#LASTBEAT:276.000;
#SONGFILENAME:songs/Pack anime 1/[QED] Forever We Can Make It! [To Love-Ru]/Forever We Can Make It.sm;
#HASMUSIC:1;
#HASBANNER:1;
#MUSICLENGTH:89.364;
// end cache tags

//---------------dance-single - ----------------
#NOTES:
     dance-single:
     :
     Challenge:
     11:
     1.000,1.000,1.000,0.660,0.358,585.000,179.000,59.000,0.000,6.000:
0000
0000
0000
1001
1001
1001
0110
0100
,
0110
0000
1000
0001
1010
0000
0010
0000
0110
0000
0100
0000
0011
0000
0001
0000
,
0011
0000
0100
0010
1001
0000
1000
0000
1001
0000
0010
0000
1010
0000
1000
0000
,
1010
0000
0100
1000
0011
0000
0100
0000
1001
0000
0100
0000
0011
0000
0100
0000
,
1010
0000
0100
0001
1100
0000
0001
0010
0100
0000
0100
0000
0011
0000
0001
0000
,
0110
0120
0130
0011
0011
1000
0110
0110
,
0100
0000
0102
0000
0013
0000
0110
0000
1001
0000
0110
0000
0011
0000
0010
0100
,
1000
0000
0100
0000
1010
0000
0100
0001
0010
0000
0100
0000
0011
0000
0001
0010
,
1000
0000
1000
0100
0010
0000
0010
0100
0010
0100
1000
0100
0011
0000
0010
0000
,
1001
1002
0103
0110
1010
1000
1100
0110
,
0001
0000
0120
0000
1030
0000
1100
0000
1010
0000
0100
0000
1001
0000
0010
0100
,
1000
0000
0010
0000
0011
0000
0001
0010
0100
0000
0010
0000
1001
0000
0010
0001
,
0010
0000
0100
0010
0100
0000
0100
1000
0100
0010
0001
0010
1100
0000
0100
0000
,
0110
0012
0013
0010
0100
0010
1001
0011
,
0100
0000
2010
0000
3100
0000
0010
0000
0101
0000
0010
0000
0011
0000
0010
0100
,
0010
0000
0110
0000
1001
0000
1000
0100
0001
0000
1100
0000
0101
0000
0100
1000
,
0100
0000
0010
0001
0010
0000
0100
0000
1000
0000
0100
0000
0011
0000
0000
0000
,
0101
0000
0010
0000
1100
0000
0100
0000
0001
0000
0001
0010
1001
0000
0100
0000
,
0011
0000
0010
0000
1010
0000
0100
0000
0110
0000
0100
1000
0011
0000
0010
0000
,
0011
0000
0010
0000
1100
0000
0100
0000
1001
0000
0100
0010
0101
0000
1000
0100
,
0010
1001
1001
0100
0010
1000
0011
0011
,
0012
0000
0010
0100
0013
0000
1000
0000
0010
0000
0100
0000
1001
0000
1001
0000
,
2001
0000
0010
0100
3001
0000
0100
0000
0010
0000
0100
0000
0012
0000
0100
1000
,
0103
0000
0010
0000
0200
0000
0010
0001
0310
0000
0010
0000
1001
0000
0100
0000
,
1001
0000
1010
0000
1000
0000
0010
0100
0010
0000
0100
0000
0011
0000
0101
0000
,
2001
0000
0100
0010
3001
0000
0100
0000
0010
0000
0100
0000
1001
0000
0011
0000
,
0201
0000
0010
1000
0310
0000
1000
0000
0001
0000
0100
0000
0012
0000
1000
0100
,
0013
0000
1000
0000
0020
0000
0100
0001
0130
0000
1000
0000
0011
0000
0011
0000
,
0100
0000
1000
0000
1001
0000
0010
0100
1000
0000
0110
0000
0011
0000
0011
0000
,
0012
0000
0000
0000
0103
0000
0010
0100
1000
0000
0010
0000
1010
0000
1010
0000
,
1020
0000
0000
0000
1030
0000
0010
0000
0001
0000
0100
0000
0011
0000
0010
0100
,
0010
0000
0100
0000
1001
0000
1000
0100
0010
0000
0011
0000
1000
0000
0010
0000
,
0001
2000
3000
0100
0010
0100
2000
0100
,
0010
3100
0002
0010
0100
0013
1100
0100
,
1000
0011
0001
0120
0001
0130
0200
1000
,
0010
0301
0020
0001
0100
1030
0011
0100
,
1001
2100
0000
3100
0110
0010
2010
0000
,
0100
3002
0010
0203
,
0010
0000
0302
0000
1000
0000
1013
0100
,
0011
0010
0101
0010
1002
0000
0103
0100
,
0100
0010
0001
0010
0001
0100
0020
0000
,
0100
0032
0100
2003
,
0010
0000
3020
0000
0100
0000
1031
0100
,
1001
0010
0011
0010
0210
0000
0310
0010
,
0010
0000
0100
0010
0001
0000
0010
1000
0010
0000
0100
0001
2010
0000
0010
0000
,
3100
0010
0012
0010
0103
1000
0210
0010
,
1300
0001
0012
0100
0013
1000
1010
0100
,
0011
0010
0110
0010
1002
1000
0013
0100
,
0010
0000
0001
0010
0100
0000
0010
0100
0010
0000
0010
0000
2001
0000
3000
0000
,
1001
0100
0011
0011
0011
0100
0002
0013
,
1000
0100
0020
0001
0130
1000
0110
0000
,
0110
0001
1010
0000
0101
0010
1001
0010
,
0110
0000
1000
0100
0010
0000
0010
0100
1000
0000
0001
0010
2100
0000
0100
0000
,
3001
0010
0102
0010
1003
0010
0201
0010
,
1300
0100
0012
0100
1003
0010
1001
0100
,
0011
1000
0110
1000
0012
0103
1010
1010
,
1010
0000
0100
1000
0010
0000
0001
0010
0100
0000
0010
0100
2001
0000
0001
0000
,
3010
0100
0012
0100
0013
0100
1020
0100
,
0031
0010
0102
0010
0103
1000
0110
1000
,
1001
0100
0110
0010
0102
0013
1010
1010
,
1010
0000
0100
1000
0100
0000
0010
1000
0100
0000
0100
0010
2001
0000
0010
0000
,
3011
1000
0120
1000
0131
0010
1200
0010
,
1301
0010
0102
0100
1103
0100
1001
1000
,
0110
0010
0101
0010
1001
0100
1001
0001
,
0110
0000
0010
0100
0010
0000
0010
0100
1000
0000
0010
0000
1001
0000
0100
0010
,
0001
0000
0100
0000
0011
0000
0010
0100
1000
0000
0100
0000
0002
0000
0100
1000
,
0103
0000
0010
0000
2000
0000
0010
0001
3010
0000
0100
0000
0011
0000
0100
0010
,
0001
0000
0001
0010
0100
0000
1000
0000
0010
0000
0100
0000
1000
0000
0010
0100
,
1000
0000
0001
1000
0110
0000
0110
0000
0110
0000
0220
0000
0000
0000
0000
0330
;

//---------------dance-single - Copied from----------------
#NOTES:
     dance-single:
     Copied from:
     Easy:
     3:
     0.462,0.463,0.358,0.369,0.000,224.000,32.000,33.000,0.000,0.000:
0000
0000
0110
1001
,
1000
0010
0100
0011
,
0010
1000
0001
1100
,
0010
1000
0100
0011
,
0001
0100
0010
0110
,
0000
1000
0000
0000
0100
0000
1001
0000
,
0000
0010
0000
0000
0001
0000
0110
0000
,
0010
0100
1000
0011
,
0100
0010
0100
0011
,
0000
0010
0000
0000
1000
0000
0110
0000
,
0000
0010
0000
0000
0001
0000
1010
0000
,
0100
0010
0100
0011
,
0001
0010
0100
2000
,
0000
3100
0000
0000
0010
0000
0002
0000
,
0000
0103
0000
0000
0010
0000
1001
0000
,
0100
0010
1000
0001
,
0100
1000
0100
0110
,
0010
1000
0000
0101
,
0010
0100
0000
0011
,
0010
0100
1000
0010
,
1000
0100
1000
0010
,
0110
0000
0010
0001
,
1001
0000
0001
0002
,
0103
2000
3010
0110
,
0001
1000
0100
0010
,
0011
0000
0001
1000
,
0110
0000
1000
0010
,
0100
0010
1000
0001
,
0010
0100
0010
0001
,
0011
0000
0010
1000
,
1100
0000
0100
0001
,
0001
0010
0010
0100
,
0100
1000
0100
0020
,
0030
0002
0003
0010
,
1000
0100
0010
0200
,
0300
2000
3000
0010
,
0100
0001
0010
2000
,
3000
0002
0003
0200
,
0300
0002
0003
0010
,
0001
0100
0010
1000
,
0100
0001
0010
2000
,
3000
0002
0003
0200
,
0300
2000
3000
0010
,
0100
0001
1000
0100
,
0010
0100
0010
0200
,
0300
0002
0003
2000
,
3000
0200
0300
0010
,
0100
0001
1000
0010
,
0100
0010
0100
0110
,
0000
0110
0000
1001
,
0000
1001
0000
1000
,
0001
1000
0100
1000
,
0010
0100
0010
0002
,
0003
2000
3000
0200
,
0300
0020
0030
0001
,
1000
0100
1000
0010
,
0100
0010
0100
0020
,
0030
0200
0300
2000
,
3000
0002
0003
0100
,
0010
1000
0001
0100
,
0010
1000
0100
0020
,
0030
0200
0300
0002
,
0003
0020
0030
0100
,
0010
0100
0001
1000
,
0100
0010
0001
0110
,
0001
0110
0000
1001
,
0100
1001
0000
0100
,
0010
0100
0001
1000
,
0100
2000
0000
0000
,
3000
0000
0000
0000
;

//---------------dance-single - Copied from Copied f----------------
#NOTES:
     dance-single:
     Copied from Copied f:
     Hard:
     9:
     0.889,0.965,1.000,0.470,0.000,407.000,107.000,42.000,0.000,0.000:
0000
0000
0000
1001
1001
1001
0110
0000
,
0100
0011
0010
1001
,
0010
1100
0100
0110
,
0110
0110
1000
0101
,
0100
0001
0010
0000
0010
1000
0101
0000
,
0010
0100
0000
1000
0100
0010
0101
0000
,
0010
0001
0000
0010
0100
0010
1010
0000
,
1001
0000
0010
0100
0010
1000
0101
0000
,
0011
0000
0100
0001
0100
1000
0110
0000
,
0100
1001
0000
0010
0100
1000
0011
0000
,
0010
1001
0000
0010
0100
0010
0011
0000
,
1001
0000
0010
1000
0010
0100
0011
0000
,
1100
0000
0010
1000
0001
0010
1100
0000
,
0110
0001
0000
0001
0110
1000
1001
0000
,
0100
1001
0000
1001
0100
0010
0001
0010
,
0100
0010
0100
0002
0010
0100
2000
3003
,
0110
0110
0100
1001
,
0100
0010
0001
0000
0011
0000
0101
0000
,
0010
1000
0100
0000
1010
0000
0101
0000
,
0010
0100
0010
0000
0011
0000
0101
0000
,
0010
0100
0010
1001
1001
0100
0110
0110
,
0110
0010
1000
0100
0001
1000
0011
0011
,
0011
0010
0100
0001
1000
0100
0012
0003
,
0100
0010
2002
3003
0100
0010
1010
0100
,
0011
1001
0000
0010
0100
1000
1001
1001
,
1001
0100
0010
1000
0001
0010
0011
0101
,
1010
0100
0010
0100
0001
1000
0102
0003
,
0001
0010
1200
0300
0010
0100
1100
0011
,
1000
0110
0000
0001
0010
0001
1001
1001
,
1001
0000
0010
0100
0010
1000
0110
1010
,
2100
0000
3000
0010
0001
0010
1002
0003
,
0010
0100
1020
0030
0100
1000
0110
0010
,
1010
1010
0000
0100
0001
0100
2000
0000
,
3010
0102
0013
0120
,
1030
0010
0000
0010
0100
0010
0200
0000
,
0310
0102
1003
0210
,
0301
0010
0000
1000
0100
0010
0201
0000
,
0310
0002
1003
0200
,
0310
0002
0013
1001
,
0011
0000
0110
0000
1001
0000
0100
0010
,
0100
0000
1000
0100
0010
0100
0020
0000
,
1030
0002
0103
0020
,
0031
0002
0103
1001
,
0011
0000
1100
0000
1010
0000
0100
1000
,
0010
0000
0001
0100
0001
0010
2000
0000
,
3001
0002
0103
0200
,
0310
0020
1030
1100
,
0011
0000
0110
0000
1001
0000
0010
0100
,
0010
0000
1000
0010
0100
0010
0002
0000
,
0103
0010
2000
0000
3010
0100
0020
0000
,
0130
0010
2000
0000
3100
0010
1001
0000
,
0110
0000
1001
0000
0010
1000
0010
0100
,
0010
0001
0010
0100
0010
0100
0020
0000
,
0130
1000
0001
1000
0100
0010
2000
0000
,
3001
0010
0100
0010
0100
1000
0110
0000
,
0010
0001
0010
0000
1001
0000
1001
0000
,
0100
1000
0001
1000
0010
0100
2000
0000
,
3100
0001
0100
1000
0010
0100
0002
0000
,
0013
0100
1000
0100
0001
0010
1100
0000
,
0001
0010
0100
0000
0011
0000
1001
0000
,
0010
0001
0010
0100
1000
0100
0012
0000
,
1003
0100
0001
0010
0100
0010
2100
0000
,
3001
0100
0010
1000
0100
0010
0101
0000
,
0001
0010
0001
0000
1010
0000
1100
0000
,
0100
0010
1000
0001
0100
0010
2001
0000
,
3100
0010
0001
0010
0001
0010
0200
0000
,
0310
1000
0001
0100
0010
0100
0002
0000
,
0103
0010
0001
0000
0010
1000
0001
0100
,
0010
0100
1000
1000
1000
2000
0000
0000
,
3000
0000
0000
0000
;

//---------------dance-single - Copied from Copied f----------------
#NOTES:
     dance-single:
     Copied from Copied f:
     Medium:
     6:
     0.670,0.618,0.325,0.526,0.000,343.000,29.000,47.000,0.000,0.000:
0000
0000
0000
1000
0001
1000
0100
0000
,
1000
0001
0010
0001
,
0010
1000
0100
0010
,
0100
0010
1000
0001
,
0100
0010
0100
0101
,
0010
0100
0000
1000
0100
0010
0001
0001
,
0000
1001
0000
0010
0100
0010
1000
0000
,
1001
0000
0010
0100
0000
1001
0000
0010
,
0001
0001
0100
0110
,
0100
1000
0000
0010
0100
1000
0001
0010
,
0000
0010
0000
0010
1000
0100
0001
0000
,
1001
0000
0010
1000
0000
0100
0000
0001
,
1000
0010
0001
1100
,
0010
0001
0000
0001
0010
1000
0001
0100
,
0000
0010
0000
1000
0100
0010
0001
0010
,
0100
0010
0100
0002
0000
0200
0000
0303
,
0110
0000
1000
0100
0000
0011
0100
0001
,
0010
0000
1001
0000
0010
0001
0000
1000
,
0100
0000
0100
0000
1000
0001
0000
0001
,
0010
0000
0100
0000
1000
0010
0000
0001
,
0010
0100
0001
1000
0010
0100
0010
0010
,
0010
0000
0010
0100
0001
1000
0001
0001
,
0001
0000
0100
0001
1000
0100
0002
0003
,
0100
0000
0020
0030
0100
0010
1000
0000
,
0001
0010
0000
0010
0100
1000
0100
0100
,
0100
0000
0010
1000
0001
0010
0001
0100
,
1000
0000
0010
0100
0001
1000
0002
0003
,
0010
0000
0200
0300
0010
0100
1000
0001
,
0000
0110
0000
1000
0010
0100
0001
0001
,
0001
0000
1000
0100
0010
1000
0010
1000
,
0020
0000
0000
0130
1000
0010
0002
0003
,
0010
0000
0200
0300
0010
1000
0100
0000
,
1000
0010
0000
0100
0001
0100
2000
0000
,
3010
0002
0013
0200
,
1300
0010
0000
1000
0100
0001
0200
0000
,
0310
0002
1003
0200
,
0301
0010
0000
1000
0100
0010
0200
0000
,
0310
0002
1003
0200
,
0310
0002
0013
1000
,
0001
0010
0001
0100
,
0110
1000
0110
0020
,
1030
0002
0103
0020
,
0031
0002
0103
1000
,
0001
0100
0010
0100
,
1010
0001
0011
2000
,
3001
0002
0103
0200
,
0310
0020
1030
1000
,
0001
0100
0001
0010
,
0011
1000
1100
0002
,
0103
2000
3010
0020
,
0130
2000
3100
1001
,
0110
0000
1001
0000
0010
0000
0010
0100
,
0010
0000
0001
1000
0001
0000
0020
0000
,
0130
0002
0103
2000
,
3001
0002
0103
0100
,
0001
0010
1001
1001
,
0100
1000
0001
0000
0010
0100
2000
0000
,
3100
0200
0310
0020
,
0031
0002
0013
1000
,
0001
0100
0011
1010
,
0010
0001
0010
0000
1000
0100
0002
0000
,
1003
0200
0310
2000
,
3100
0002
0103
1000
,
0001
0100
0011
1100
,
0100
0010
1000
0000
0100
0010
2001
0000
,
3100
1000
0001
0000
1000
0001
0200
0000
,
0310
1000
0001
0000
0010
0100
0002
0000
,
0103
1001
0110
0001
,
0010
0000
1000
1000
1000
2000
0000
0000
,
3000
0000
0000
0000
;
